#TITLE:Don't Cry;
#SUBTITLE:;
#ARTIST:XR;
#TITLETRANSLIT:Don't Cry;
#SUBTITLETRANSLIT:;
#ARTISTTRANSLIT:XR;
#CREDIT:;
#BANNER:Don't Cry - XR (Audition)-bn.png;
#BACKGROUND:Don't Cry - XR (Audition)-bg.png;
#LYRICSPATH:;
#CDTITLE:;
#MUSIC:Don't Cry.mp3;
#OFFSET:0.080;
#SAMPLESTART:65.536;
#SAMPLELENGTH:20.000;
#SELECTABLE:YES;
#BPMS:0.000=146.000,64.000=292.000,66.250=146.000,289.250=292.000,291.250=146.000;
#STOPS:;
#BGCHANGES:;
// cache tags:
#FIRSTBEAT:1.250;
#LASTBEAT:523.000;
#SONGFILENAME:Songs/Music V.I.P ^_^/Don't Cry/Don't Cry - XR (Audition) .sm;
#HASMUSIC:1;
#HASBANNER:1;
#MUSICLENGTH:218.409;
// end cache tags

//---------------dance-single - ----------------
#NOTES:
     dance-single:
     :
     Hard:
     18:
     1.000,1.000,1.000,0.073,1.000,1446.000,485.000,16.000,0.000,51.000:
0000
0000
0000
0000
0000
0100
0000
0010
0000
0001
0010
0100
0010
0001
0000
0001
,
0010
0000
1000
0100
0010
0001
0000
1000
0000
1000
0100
0010
0100
1000
0000
0001
,
0010
0000
0010
0100
0010
0100
0000
0010
0000
1000
0100
0010
0100
0010
0000
1000
,
0001
0000
0001
0010
0100
1000
0000
0010
0000
0001
0010
0100
1000
0100
0000
0001
,
0010
0000
1000
0100
0010
1101
0000
0010
0100
0011
0100
0010
0001
1010
0000
1000
,
0101
0000
0001
0010
0100
1010
0000
0100
0000
1001
0100
0010
0001
0110
0000
1000
,
0100
1010
0100
0010
0100
1001
0000
0001
0100
1010
0100
0001
0010
1100
0000
0001
,
0010
0000
0010
0001
0010
1200
0001
1000
0001
1000
0001
1000
0001
1000
0001
1000
,
0001
0000
1000
0001
1000
0001
1000
0001
1300
0001
1100
0000
0010
0000
1000
0000
0100
0000
0001
0000
0010
0000
1000
0000
0100
0000
0001
0000
0010
0000
1000
0000
,
0100
0001
0010
1100
0000
0100
1000
0010
0001
0100
1000
0010
0001
0100
1000
0010
,
0001
0100
1000
0101
0000
1000
0001
0100
0010
1000
0001
0100
0010
1000
0001
0100
,
0010
0000
1000
0000
0001
0000
0100
0000
0010
0000
1100
0000
0001
0000
0010
0000
0100
0000
1000
0000
0100
0000
0010
0000
0001
0000
0010
0000
0100
0010
0001
0010
,
0100
0010
0001
0010
0100
1000
0100
0010
0100
1000
0101
0000
0010
0000
1000
0000
0010
0000
0100
0000
0001
0000
1000
0000
0010
0000
0100
0000
0001
0000
1000
0000
,
0010
0100
0001
0110
0000
0001
0010
1000
0100
0001
0010
1000
0100
0001
0010
1000
,
0100
0001
0010
0101
0000
0010
0100
0001
1000
0010
0100
0001
1000
0010
0100
0001
,
1000
0010
0100
0001
1000
0101
0010
0100
1000
0100
0010
0001
0010
0100
1000
0100
,
0020
0000
0000
0000
0000
0000
0000
0000
0000
1131
0000
1100
0000
0000
1000
0101
,
0000
0011
0000
0110
0000
1100
0000
0110
0000
1001
0000
0101
0000
0011
0000
0101
,
0000
1001
0000
1010
0000
0101
0000
1001
0000
0110
0000
1010
0000
1100
0000
0011
,
0000
0110
0000
1001
0000
1010
0000
0110
0000
0101
0000
1010
0001
0010
0100
0010
,
0100
1001
0100
0010
0001
1010
0100
0010
0100
1001
0000
1010
0000
1001
0000
0110
,
0000
0101
0000
0011
0000
1100
0000
0110
0000
1001
0000
0101
0000
1010
0000
0101
,
0000
1001
0000
1100
0000
0011
0000
1010
0000
1100
0000
1010
0000
1001
0000
0101
,
0000
0011
0000
0101
0000
1010
0000
1001
0010
2200
0010
0001
0010
0001
0010
0001
,
0010
0000
0001
0000
0010
0000
0001
0000
0010
0000
0001
0010
0001
0010
0001
0010
3301
0010
1001
0000
0000
0000
0100
0000
0000
0000
0101
0000
0000
0000
0010
0000
,
0000
0110
0000
0100
0000
1100
0000
0001
0000
1010
0000
0100
0000
0011
0000
0100
,
0000
1001
0000
0100
0000
0110
0000
0010
0000
0011
0000
0001
0000
1010
0000
1000
,
0000
1100
0000
1000
0000
1001
0000
0010
0000
1010
0000
1000
0100
0011
0100
1000
,
0100
1010
0100
0010
1000
0101
1000
0100
0010
1001
0000
0010
0000
1100
0000
0001
,
0000
1010
0000
0100
0000
0011
0000
0100
0000
0110
0000
0010
0000
0011
0000
0001
,
0000
1010
0000
0001
0000
1100
0000
0010
0000
0101
0000
0010
0000
1100
0000
0001
,
0000
0101
0000
0001
0000
1100
0000
1000
0010
0101
0010
0001
0010
1100
0010
0100
,
1000
0000
0101
0000
0010
0000
0100
0000
1000
0000
0110
1000
0100
0010
0100
0010
0001
0010
1100
0000
0000
0000
0010
0000
0000
0000
0101
0000
0000
0000
0001
0000
,
0000
1010
0000
0100
0000
1001
0000
0100
0000
0011
0000
1000
0000
1010
0000
0100
,
0000
0110
0000
0010
0000
0011
0000
0001
0000
1100
0000
1000
0000
1010
0000
1000
,
0000
1001
0000
0001
0000
0101
0000
0001
0100
0011
1000
0100
0010
1100
0010
0100
,
0010
0101
1000
0100
0010
1001
0010
0100
1000
0101
0000
0001
0000
1100
0000
0010
,
0000
0101
0000
0010
0000
0110
0000
1000
0000
0101
0000
0010
0000
1001
0000
1000
,
0000
0011
0000
0010
0000
1010
0000
1000
0000
0011
0000
0100
0000
0110
0000
0001
,
0000
0101
0000
1001
0000
1010
0000
1100
0000
0000
0000
0110
0000
1001
0000
0000
,
0000
0000
1000
0100
0010
0100
0010
0001
0010
0100
1000
0100
0010
0100
1000
0100
0010
0001
1010
0000
0000
0000
1000
0000
0000
0000
1100
0000
0000
0000
0001
0000
,
0000
1010
0000
0100
0000
0011
0000
1000
0000
0110
0000
0001
0000
0101
0000
0001
,
0000
1100
0000
0010
0000
0110
0000
0100
0000
0101
0000
0100
0000
1100
0000
1000
,
0000
0101
0000
0001
0000
1001
0000
0100
0000
0011
0100
1000
0100
0011
0100
1000
,
0100
0011
0100
1000
0100
0011
0100
1000
0100
0011
0000
0001
0000
1010
0000
0100
,
0000
1001
0000
0010
0000
1100
0000
0001
0000
1010
0000
0100
0000
0011
0000
0100
,
0000
1001
0000
0010
0000
0101
0000
0010
0000
1010
0000
1000
0000
1100
0000
0010
,
0000
0110
0000
0001
0000
1001
0000
0100
0000
0011
0100
0010
0001
0011
0100
0010
,
0001
0000
0011
0000
0100
0000
0010
0000
0001
0000
0011
0000
0100
0010
0001
0010
0100
0000
0111
0000
0000
0000
1000
0000
0000
0000
0110
0000
0000
0000
0001
0000
,
0000
1010
0000
0100
0000
1100
0000
0001
0000
1010
0000
0100
0000
0011
0000
1000
,
0000
0101
0000
0010
0000
1100
0000
0001
0000
1010
0000
0010
0000
0101
0000
1000
,
0000
1100
0000
0010
0000
0101
0000
1000
0000
1100
0010
0001
0010
1100
0010
0001
,
0010
0000
1100
0000
0010
0000
0001
0000
0010
0000
1100
0000
0001
0010
0100
0010
0001
0010
1100
0000
0000
0000
0010
0000
0000
0000
0101
0000
0000
0000
0010
0000
,
0000
1001
0000
0100
0000
0011
0000
1000
0000
0101
0000
0010
0000
1100
0000
0001
,
0000
1010
0000
0100
0000
0011
0000
1000
0000
0101
0010
0001
0010
0101
0010
0001
,
0010
0101
0010
0001
0010
0101
0010
0001
0010
0101
0010
0001
0010
0101
0010
0001
,
0010
0000
0101
0000
0010
0000
0100
0000
1000
0000
0100
0010
0001
0010
0100
1000
0100
0010
2100
0000
0000
0000
0010
0000
0000
0000
0001
0000
0000
0000
0010
0000
,
0001
0000
0010
0000
0001
0010
0000
0010
0000
0100
0010
0001
0000
0001
0000
0001
,
0010
0000
0010
0000
0010
0001
0000
0001
0010
0001
0000
0100
0000
0010
0000
0001
,
0100
0000
0010
0000
0100
0001
0000
0010
0000
0001
0010
0100
0000
0100
0010
0100
,
0010
0000
0001
0000
0001
0010
0000
0100
0010
3102
0000
0010
0000
1100
0000
1000
,
0000
1010
0000
0100
0000
0110
0000
0010
0000
1100
0000
1000
0000
1010
0000
0100
,
0000
0110
0000
1000
0000
1100
0000
0010
0000
1010
0000
0100
0000
1100
0000
0100
,
0000
0110
0000
1000
0000
1010
0000
0010
0000
1100
0010
0100
1000
0100
0010
0100
,
1000
0100
0010
0100
1000
0100
0010
0100
1000
0113
1000
0001
0010
1000
0100
0001
,
0010
1000
0100
0001
0010
1000
0100
0011
0000
0010
0001
0100
1000
0010
0001
0100
,
1000
0010
0001
0100
1000
0010
0001
0110
0000
1000
0001
0100
0010
1000
0001
0100
,
0010
1000
0001
0100
0010
1000
0001
0100
0010
1000
0001
0010
0100
1000
0100
0010
,
0001
0010
0100
1000
0100
0010
0001
0010
0100
1001
0100
0001
0010
1000
0100
0001
,
0010
1000
0100
0001
0010
1000
0100
0011
0000
0010
0100
0001
1000
0010
0100
0001
,
1000
0010
0100
0001
1000
0010
0100
1010
0000
0010
0001
0100
1000
0010
0001
0100
,
1000
0010
0001
0100
1000
0010
0001
0100
1000
0010
0001
0010
0100
1000
0100
0010
,
0001
0010
0100
1000
0200
0000
0000
0000
0000
0000
0000
0000
0000
1311
0000
1010
,
0000
0000
0010
0101
0000
1100
0000
0101
0000
0110
0000
1010
0000
1001
0000
1010
,
0000
1100
0000
1001
0000
0101
0000
0011
0000
0101
0000
1001
0000
0110
0000
0011
,
0000
1100
0000
0011
0000
1010
0000
1001
0000
0101
0000
0110
0000
0011
0100
1010
,
0100
0011
0100
1010
0001
1100
0010
1001
0010
0101
1000
0101
0010
1101
0000
0011
,
0000
0110
0000
1100
0000
1001
0000
0101
0000
0011
0000
0101
0000
0110
0000
1010
,
0000
1001
0000
0101
0000
0011
0000
1001
0000
1100
0000
0110
0000
0011
0000
1010
,
0000
1001
0000
0110
0000
1001
0000
1010
0000
0101
0000
0011
0100
1002
0100
1000
,
0100
0000
1000
0000
0100
0000
1000
0000
0100
0000
1000
0000
0100
0000
1000
0000
0100
0000
1000
0100
1000
0100
1000
0100
1000
0100
1013
0000
0000
0000
0001
0000
,
0000
1100
0000
0010
0000
0101
0000
0010
0000
1001
0000
0100
0000
0011
0000
1000
,
0000
1001
0000
0010
0000
1010
0000
0100
0000
0011
0000
1000
0000
0101
0000
0010
,
0000
1100
0000
0001
0000
0110
0000
1000
0000
1010
0000
0010
0000
0011
0000
0001
,
0000
1010
0000
0100
0000
0011
0100
0010
0001
0010
0100
0010
0100
1001
0000
1000
,
0000
0110
0000
0001
0000
0101
0000
0010
0000
1100
0000
1000
0000
1001
0000
0010
,
0000
1010
0000
0001
0000
1100
0000
0010
0000
0101
0000
0010
0000
1001
0000
0100
,
0000
1100
0000
0010
0000
0110
0000
1010
0000
0101
0000
1001
0000
0000
0000
1001
,
0000
0000
0110
0000
0000
0000
0000
0000
0000
0000
1000
0100
0010
0001
0010
0100
0010
0100
1000
0001
0010
0100
0010
0001
0010
0100
1010
0000
0000
0000
0001
0000
,
0000
0110
0000
1000
0000
0101
0000
0001
0000
1100
0000
0010
0000
0110
0000
1000
,
0000
0101
0000
0001
0000
1100
0000
0010
0000
0101
0000
0001
0000
1100
0000
0010
,
0000
0101
0000
0010
0000
1001
0000
0001
0000
0011
0000
0001
0000
0101
1000
0100
,
1000
0101
1000
0100
1000
0101
1000
0100
1000
0101
1000
0100
1000
0101
0000
0001
,
0000
1100
0000
0010
0000
0101
0000
0010
0000
1001
0000
0010
0000
1100
0000
1000
,
0000
0110
0000
0010
0000
0011
0000
0001
0000
1010
0000
1000
0000
0101
0000
0100
,
0000
0011
0000
1000
0000
1001
0000
0010
0000
1100
0000
1000
0100
0011
0100
0010
,
0100
0000
0011
0000
0100
0000
0010
0000
0100
0000
0011
0000
0100
0000
0010
0000
0100
0000
0011
0100
0010
0100
0010
0100
0010
0100
0011
0000
0000
0000
1000
0000
,
0000
0101
0000
0010
0000
1100
0000
0001
0000
1010
0000
0010
0000
1100
0000
0001
,
0000
1001
0000
1000
0000
1100
0000
0100
0000
0101
0000
0010
0000
1001
0000
0100
,
0000
0101
0000
0010
0000
1100
0000
1000
0000
0101
0000
0001
0000
1001
0010
0100
,
1000
0000
1100
0000
0010
0000
0100
0000
1000
0000
1100
0000
0010
0000
0100
0000
1000
0000
1100
0010
0100
1000
0100
0010
0100
1000
1110
0000
0000
0000
1000
0000
,
0000
0110
0000
0001
0000
1010
0000
0100
0000
1001
0000
0010
0000
0110
0000
0100
,
0000
1100
0000
0100
0000
0110
0000
0010
0000
0011
0000
0001
0000
1100
0010
1000
,
0010
1100
0010
1000
0010
1100
0010
1000
0010
1100
0010
1000
0010
1100
0010
1000
,
0010
0000
1100
0000
0010
0000
1000
0000
0010
0000
1100
0000
0010
0000
1000
0000
0010
0000
1100
0010
1000
0010
1000
0010
1000
0010
1200
0000
0000
0000
0000
0000
,
0000
0000
0000
0000
0001
0000
0010
0000
0000
0000
0001
0000
1000
0300
0020
0000
,
0000
0000
0001
0000
0100
0000
0000
0000
1000
0000
0100
0000
1001
0030
2100
0000
,
0000
0000
0001
0000
0100
0000
0000
0000
0100
0000
0010
0000
0000
3000
0002
0000
,
0000
0000
0010
0000
0100
0000
0000
0000
1000
0000
0100
0000
0003
1100
0000
0001
,
0000
0101
0000
0100
0000
0011
0000
1000
0000
0101
0000
0010
0000
1001
0000
0100
,
0000
0011
0000
1000
0000
0101
0000
0010
0000
1100
0000
0001
0000
1010
0000
0100
,
0000
0011
0000
1000
0000
0101
0000
0110
0000
1001
0000
0102
0000
0010
0100
1000
,
0100
0000
1010
0000
0100
0000
1000
0000
0100
0000
1010
0000
0100
0000
1000
0000
0100
0000
0010
0100
1000
0100
0010
0100
1000
0100
1013
0000
0000
0000
0001
0000
,
0000
1100
0000
0010
0000
0101
0000
1000
0000
0110
0000
0001
0000
1010
0000
0100
,
0000
1100
0000
0001
0000
1001
0000
0100
0000
0011
0000
1000
0000
0101
0000
0010
,
0000
1100
0000
0001
0000
0110
0000
1000
0000
1010
0000
0010
0000
0011
1000
0001
,
0100
1010
0001
0100
1000
0011
0100
1000
0010
0101
0010
0001
0010
1100
0000
0001
,
0000
1010
0000
0100
0000
0011
0000
1000
0000
1100
0000
0010
0000
0101
0000
0010
,
0000
1100
0000
0001
0000
1010
0000
0001
0000
1001
0000
0100
0000
0011
0100
1000
,
0100
0011
0100
1000
0100
0011
0100
1000
0100
0011
0100
1000
0100
0011
0100
1000
,
0100
0011
1000
0010
0100
0011
1000
0100
0010
1001
0100
0001
0010
0101
0000
1001
,
0000
1010
0000
1100
0000
1001
0000
0101
0000
0011
0000
1010
0000
1101
0000
0101
,
0000
0110
0000
1010
0000
1100
0000
0011
0000
1100
0000
0110
0000
1011
0000
0110
,
0000
0101
0000
0011
0000
1001
0000
1100
0000
1010
0000
0110
0000
0111
1000
0101
,
1000
0011
0100
1001
0010
1100
0001
0110
1000
0011
0100
1001
0010
1101
0000
0110
,
0000
1100
0000
0110
0000
1001
0000
1010
0000
0101
0000
1010
0000
1110
0000
0101
,
0000
0110
0000
0011
0000
1100
0000
0101
0000
0011
0000
1010
0000
1101
0000
0101
,
0000
0011
0000
1010
0000
1100
0000
0101
0000
0011
0000
1001
0100
1011
0100
0011
,
0100
0000
1001
0000
0100
0000
1010
0000
0001
0000
0110
0000
0001
0000
1100
0000
0001
0000
1010
0001
0010
0100
1000
0100
0010
0001
2220
0000
0000
0000
0000
0000
,
0000
0000
0000
0000
,
0000
0000
0000
3330
;

//---------------dance-single - ----------------
#NOTES:
     dance-single:
     :
     Medium:
     1:
     0.000,0.000,0.000,0.000,0.000,0.000,0.000,0.000,0.000,0.000:
0000
0000
0000
0000
;
